Dodał: kalinkus
Data Dodania:
18 Styczeń 2021 21:28
Ostatnia Aktualizacja:18 Kwiecień 2021 11:22
Rozmiar:4,35 Gb

Seedów:
874


Peerów:
663

Pobrań:900



[odśwież]
Komentarzy: 0
rok produkcji 1981

W przyszłości ludzie wyruszają na podbój kosmosu. Planeta Omega jest postępowym posterunkiem różnorodnych cywilizacji galaktycznych. Ludzie z Omegi, którzy tam pracują, szukają możliwości kontaktu z innymi formami życia. Niektóre planety odmówiły przyłączenia do Związku Omegi. Jedna z tych planet, Konstelacja Kasjopei jest zarządzana przez człowieka odpowiedzialnego za większość przestępstw i wykroczeń popełnionych na ludziach z Omegi...
Serial animowany, który wprowadza nas w prawdziwą refleksję o pochodzeniu człowieka i istnieniu Boga.


General
Complete name : D:ajkiBył Sobie Kosmos (danio68)Byl.Sobie.Kosmos.E01.Planeta.Omega.PLDUB.DVDRip.avi
Format : AVI
Format/INFO : Audio Video Interleave
File size : 170 MiB
Duration : 26 min 13 s
Overall bit rate mode : Variable
Overall bit rate : 905 kb/s
Writing application : Lavf51.11.0

Video
ID : 0
Format : MPEG-4 Visual
Format profile : [email protected]
Format settings, BVOP : No
Format settings, QPel : No
Format settings, GMC : No warppoints
Format settings, Matrix : Default (H.263)
Codec ID : DX50
Codec ID/Hint : DivX 5
Duration : 26 min 13 s
Bit rate : 800 kb/s
Width : 640 pixels
Height : 480 pixels
Display aspect ratio : 4:3
Frame rate : 25.000 FPS
Color space : YUV
Chroma subsampling : 4:2:0
Bit depth : 8 bits
Scan type : Progressive
Compression mode : Lossy
Bits/(Pixel*Frame) : 0.104
Stream size : 150 MiB (88%)
Writing library : Lavc51.39.0

Audio
ID : 1
Format : MPEG Audio
Format version : Version 1
Format profile : Layer 3
Codec ID : 55
Codec ID/Hint : MP3
Duration : 26 min 13 s
Bit rate mode : Variable
Bit rate : 32.0 kb/s
Channel(s) : 2 channels
Sampling rate : 48.0 kHz
Compression mode : Lossy
Stream size : 17.3 MiB (10%)
Alignment : Aligned on interleaves
Interleave, duration : 24 ms (0.60 video frame)
Interleave, preload duratio : 24 ms
Writing library : LAME3.97 (beta)
Dodał: kalinkus
Data Dodania:
18 Styczeń 2021 21:26
Ostatnia Aktualizacja:18 Kwiecień 2021 11:26
Rozmiar:4,3 Gb

Seedów:
617


Peerów:
875

Pobrań:976



[odśwież]
Komentarzy: 0
rok produkcji 1994

Były sobie odkrycia to kolejna część znakomitej francuskiej serii animowanej, której twórcą jest Albert Barillé. 26-odcinkowy serial opowiada o najwybitniejszych uczonych wszechczasów, ich odkryciach z różnych dziedzin m.in. fizyki, chemii, astronomii, biologii i ich wynalazkach.
Jeden z 25-minutowych odcinków jest poświęcony Leonardo da Vinci, inny Galileuszowi, kolejne Isaacowi Newtonowi, Faradayowi, Darwinowi, Mendlowi , Pasteurowi wynalazcy penicyliny, Thomasowi Edisonowi, a także polskiej noblistce Marii Skłodowskiej-Curie


General
Complete name : D:ajkiByły sobie odkrycia (danio68)1. Były sobie odkrycia - Chińczycy.avi
Format : AVI
Format/INFO : Audio Video Interleave
File size : 157 MiB
Duration : 24 min 21 s
Overall bit rate mode : Variable
Overall bit rate : 904 kb/s
Writing application : MEncoder Sherpya-SVN-r27811-4.2.5
Writing library : MPlayer

Video
ID : 0
Format : MPEG-4 Visual
Format profile : [email protected]
Format settings, BVOP : No
Format settings, QPel : No
Format settings, GMC : No warppoints
Format settings, Matrix : Default (H.263)
Codec ID : DIVX
Codec ID/INFO : Project Mayo
Codec ID/Hint : DivX 4
Duration : 24 min 21 s
Bit rate : 769 kb/s
Width : 640 pixels
Height : 480 pixels
Display aspect ratio : 4:3
Frame rate : 25.000 FPS
Color space : YUV
Chroma subsampling : 4:2:0
Bit depth : 8 bits
Scan type : Progressive
Compression mode : Lossy
Bits/(Pixel*Frame) : 0.100
Stream size : 134 MiB (85%)
Writing library : Lavc52.0.0

Audio
ID : 1
Format : MPEG Audio
Format version : Version 1
Format profile : Layer 3
Format settings : Joint stereo / MS Stereo
Codec ID : 55
Codec ID/Hint : MP3
Duration : 24 min 21 s
Bit rate mode : Variable
Bit rate : 123 kb/s
Channel(s) : 2 channels
Sampling rate : 44.1 kHz
Compression mode : Lossy
Stream size : 21.4 MiB (14%)
Alignment : Aligned on interleaves
Interleave, duration : 26 ms (0.65 video frame)
Interleave, preload duratio : 518 ms
Dodał: kalinkus
Data Dodania:
18 Styczeń 2021 21:25
Ostatnia Aktualizacja:18 Kwiecień 2021 11:18
Rozmiar:6,2 Gb

Seedów:
691


Peerów:
646

Pobrań:986



[odśwież]
Komentarzy: 0
rok produkcji 1986

Animowane postacie tłumaczą i edukują jak działa ludzki organizm.


General
Complete name : D:ajkiByło Sobie Życie (danio68)Bylo.Sobie.Zycie.E01.PLDUBB.DVDRip.XviD(1).avi
Format : AVI
Format/INFO : Audio Video Interleave
File size : 231 MiB
Duration : 24 min 56 s
Overall bit rate : 1 298 kb/s
Writing application : FairUse Wizard
Writing library : The best and REALLY easy backup tool

Video
ID : 0
Format : MPEG-4 Visual
Format profile : Advanced [email protected]
Format settings : BVOP1
Format settings, BVOP : 1
Format settings, QPel : No
Format settings, GMC : No warppoints
Format settings, Matrix : Default (MPEG)
Codec ID : XVID
Codec ID/Hint : XviD
Duration : 24 min 56 s
Bit rate : 1 096 kb/s
Width : 640 pixels
Height : 480 pixels
Display aspect ratio : 4:3
Frame rate : 25.000 FPS
Color space : YUV
Chroma subsampling : 4:2:0
Bit depth : 8 bits
Scan type : Progressive
Compression mode : Lossy
Bits/(Pixel*Frame) : 0.143
Stream size : 195 MiB (84%)
Writing library : XviD 1.2.0.dev47 (UTC 2006-11-01)

Audio
ID : 1
Format : AC-3
Format/INFO : Audio Coding 3
Commercial name : Dolby Digital
Codec ID : 2000
Duration : 24 min 56 s
Bit rate mode : Constant
Bit rate : 192 kb/s
Channel(s) : 2 channels
Channel layout : L R
Sampling rate : 48.0 kHz
Frame rate : 31.250 FPS (1536 SPF)
Compression mode : Lossy
Stream size : 34.2 MiB (15%)
Alignment : Split across interleaves
Interleave, duration : 40 ms (1.00 video frame)
Interleave, preload duratio : 500 ms
Service kind : Complete Main
Dodał: kalinkus
Data Dodania:
18 Styczeń 2021 21:23
Ostatnia Aktualizacja:18 Kwiecień 2021 11:16
Rozmiar:4,02 Gb

Seedów:
737


Peerów:
792

Pobrań:1083



[odśwież]
Komentarzy: 0
Rok produkcji 1978

Serial animowany autorstwa Alberta Barillé prezentujący, w przystępnej dla najmłodszych formie, historię świata i człowieka. W każdym z prezentowanych okresów historycznych pojawia się grupa tych samych bohaterów, z charakterystycznym brodatym Mistrzem na czele, której życie wtopione jest w szerszy obraz historii - zachodzących na świecie przemian, najważniejszych wydarzeń, wojen, bitew. W ten sposób prezentowana jest historia ludzi od czasów prehistorycznych aż do czasów dzisiejszych.

General
Complete name : D:ajkiBył Sobie Człowiek (danio68)Był sobie Człowiek 01 Była Sobie Ziemia.avi
Format : AVI
Format/INFO : Audio Video Interleave
File size : 162 MiB
Duration : 25 min 10 s
Overall bit rate mode : Variable
Overall bit rate : 901 kb/s
Writing application : MEncoder Sherpya-SVN-r27811-4.2.5
Writing library : MPlayer

Video
ID : 0
Format : MPEG-4 Visual
Format profile : [email protected]
Format settings, BVOP : No
Format settings, QPel : No
Format settings, GMC : No warppoints
Format settings, Matrix : Default (H.263)
Codec ID : XVID
Codec ID/Hint : XviD
Duration : 25 min 10 s
Bit rate : 767 kb/s
Width : 720 pixels
Height : 576 pixels
Display aspect ratio : 4:3
Original display aspect rat : 5:4
Frame rate : 30.000 FPS
Color space : YUV
Chroma subsampling : 4:2:0
Bit depth : 8 bits
Scan type : Progressive
Compression mode : Lossy
Bits/(Pixel*Frame) : 0.062
Stream size : 138 MiB (85%)
Writing library : XviD 1.1.2 (UTC 2006-11-01)

Audio
ID : 1
Format : MPEG Audio
Format version : Version 1
Format profile : Layer 3
Format settings : Joint stereo / MS Stereo
Codec ID : 55
Codec ID/Hint : MP3
Duration : 25 min 10 s
Bit rate mode : Variable
Bit rate : 121 kb/s
Channel(s) : 2 channels
Sampling rate : 44.1 kHz
Compression mode : Lossy
Stream size : 21.7 MiB (13%)
Alignment : Aligned on interleaves
Interleave, duration : 26 ms (0.78 video frame)
Interleave, preload duratio : 507 ms
Dodał: hektor0608
Data Dodania:
24 Maj 2020 09:34
Ostatnia Aktualizacja:12 Kwiecień 2021 11:50
Rozmiar:22,68 Gb

Seedów:
751


Peerów:
994

Pobrań:824



[odśwież]
Komentarzy: 0
...( Opis )...

Tom and Jerry to amerykańska animowana seria filmów krótkometrażowych powstała w 1940 roku,
William Hanna i Joseph Barbera. Koncentruje się na rywalizacji między dwoma tytułami
postacie, Tom i Jerry oraz wiele powtarzających się postaci, opartych na slapstick
komedia.

...( Obsada )...

Tweety, Sylvester, Nibbles, Dr. Malevolent, More

...( Info )...

Gatunek: Animacja, Rodzina, Klasyczne bajki, Przygoda

...( Dane Techniczne )...

Jakość: DVDRip - MPEG4 - MP3
Rozmiar: 22,6 GB.
dаta: od 1940 do 2007 r
Runtime: Różni się w każdym odcinku (389 odcinków)
Kolor: kolor 1940 - 2007
Wideo: AVI | 640x480 | 810 Kb / s
Audio: angielski | 2 (stereo) | 128 Kbps
Czas pracy: 7 minut dla każdego odcinka
Napisy: Brak

POBIERASZ,SEEDUJ!!!

POBRAŁEŚ,PODZIĘKUJ!!!

Żaden z plików nie znajduje się na serwerze. Torrenty są własnością użytkowników. Administrator serwisu nie może ponieść konsekwencji za to co użytkownicy wstawiają, lub za to co czynią na stronie. Nie możesz używać tego serwisu do rozpowszechniania lub ściągania materiałów do których nie masz odpowiednich praw lub licencji. Użytkownicy odpowiedzialni są za przestrzeganie tych zasad.