Dodał: zibi6248
Data Dodania:
19 Marzec 2021 15:25
Ostatnia Aktualizacja:7 Maj 2021 12:56
Rozmiar:25,81 Gb

Seedów:
165


Peerów:
258

Pobrań:174



[odśwież]
Komentarzy: 0
...( Info )...

Tytuł: Liga Sprawiedliwości Zacka Snydera / Zack Snyder's Justice League
Ocena: IMDB - 8.9/10 (3.830), Filmweb - 7.1/10 (89)
=================================================
Produkcja: USA
Gatunek: Akcja, Sci-Fi
Premiera: 18 marca 2021 (świat)
Reżyseria: Zack Snyder
Scenariusz: Chris Terrio
https://www.youtube.com/watch?v=vM-Bja2Gy04

...( Opis )...

W filmie Liga Sprawiedliwości Zacka Snydera Bruce Wayne, chcąc mieć pewność, że poświęcenie Supermana nie poszło na marne, łączy siły z Dianą Prince, by zwerbować zespół superbohaterów, którzy ochronią świat przed zbliżającym się niebezpieczeństwem o katastrofalnych rozmiarach. Zadanie okazuje się jednak trudniejsze, niż to sobie wyobrażał, ponieważ każdy z członków tej ekipy musi stawić czoła demonom własnej przeszłości. Tylko pokonanie tych przeszkód, pozwoli im stworzyć bezprecedensową grupę bohaterów. Może być jednak za późno, by w końcu zjednoczeni - Batman, Wonder Woman, Aquaman, Cyborg i Flash, byli w stanie uratować planetę przed Steppenwolfem, DeSaadem, Darkseidem i ich zbrodniczymi zamiarami.

...( Obsada )...

★ Ben Affleck .... Batman (Bruce Wayne)
★ Henry Cavill .... Superman (Clark Kent)
★ Amy Adams .... Lois Lane
★ Gal Gadot .... Wonder Woman (Diana Prince)
★ Ezra Miller .... Flash (Barry Allen)
★ Jason Momoa .... Aquaman (Arthur Curry)
★ Ray Fisher .... Cyborg (Victor Stone)
★ Jeremy Irons .... Alfred Pennyworth

...( Dane Techniczne )...

MediaInfo «
Video
ID : 1
Format : HEVC
Format/Info : High Efficiency Video Coding
Format profile : [email protected]@Main
Codec ID : V_MPEGH/ISO/HEVC
Duration : 4 h 2 min
Bit rate : 14.5 Mb/s
Width : 3 840 pixels
Height : 2 160 pixels
Display aspect ratio : 16:9
Frame rate mode : Constant
Frame rate : 23.976 (24000/1001) FPS
Original frame rate : 23.976 (23976/1000) FPS
Color space : YUV
Chroma subsampling : 4:2:0
Bit depth : 8 bits
Bits/(Pixel*Frame) : 0.073
Stream size : 24.5 GiB (95%)
Writing library : x265 3.4:[Linux][GCC 6.3.0][64 bit] 8bit+10bit+12bit
Encoding settings : cpuid=1111039 / frame-threads=3 / wpp / no-pmode / no-pme / no-psnr / no-ssim / log-level=2 / input-csp=1 / input-res=3840x2160 / interlace=0 / total-frames=0 / level-idc=51 / high-tier=1 / uhd-bd=0 / ref=4 / no-allow-non-conformance / no-repeat-headers / annexb / no-aud / no-hrd / info / hash=0 / no-temporal-layers / no-open-gop / min-keyint=24 / keyint=48 / gop-lookahead=0 / bframes=3 / b-adapt=0 / no-b-pyramid / bframe-bias=0 / rc-lookahead=15 / lookahead-slices=8 / scenecut=0 / radl=0 / no-splice / no-intra-refresh / ctu=64 / min-cu-size=8 / no-rect / no-amp / max-tu-size=32 / tu-inter-depth=1 / tu-intra-depth=1 / limit-tu=0 / rdoq-level=0 / dynamic-rd=0.00 / no-ssim-rd / signhide / no-tskip / nr-intra=0 / nr-inter=0 / no-constrained-intra / strong-intra-smoothing / max-merge=2 / limit-refs=3 / no-limit-modes / me=1 / subme=2 / merange=57 / temporal-mvp / weightp / no-weightb / no-analyze-src-pics / deblock=0:0 / sao / no-sao-non-deblock / rd=2 / no-early-skip / rskip / fast-intra / no-tskip-fast / no-cu-lossless / no-b-intra / no-splitrd-skip / rdpenalty=0 / psy-rd=2.00 / psy-rdoq=0.00 / no-rd-refine / no-lossless / cbqpoffs=0 / crqpoffs=0 / rc=cbr / bitrate=14610 / qcomp=0.60 / qpstep=4 / stats-write=0 / stats-read=0 / vbv-maxrate=14610 / vbv-bufsize=28640 / vbv-init=0.9 / ipratio=1.40 / pbratio=1.30 / aq-mode=2 / aq-strength=1.00 / cutree / zone-count=0 / no-strict-cbr / qg-size=32 / no-rc-grain / qpmax=69 / qpmin=0 / no-const-vbv / sar=1 / overscan=0 / videoformat=5 / range=0 / colorprim=2 / transfer=2 / colormatrix=2 / chromaloc=0 / display-window=0 / max-cll=0,0 / min-luma=0 / max-luma=255 / log2-max-poc-lsb=8 / vui-timing-info / vui-hrd-info / slices=1 / no-opt-qp-pps / no-opt-ref-list-length-pps / no-multi-pass-opt-rps / scenecut-bias=0.05 / no-opt-cu-delta-qp / no-aq-motion / no-hdr / no-hdr-opt / no-dhdr10-opt / no-idr-recovery-sei / analysis-reuse-level=5 / scale-factor=0 / refine-intra=0 / refine-inter=0 / refine-mv=0 / refine-ctu-distortion=0 / no-limit-sao / ctu-info=0 / no-lowpass-dct / refine-analysis-type=0 / copy-pic=1 / max-ausize-factor=1.0 / no-dynamic-refine / no-single-sei / no-hevc-aq / qp-adaptation-range=1.00
Default : Yes
Forced : No

Audio
ID : 2
Format : E-AC-3 JOC
Format/Info : Enhanced AC-3 with Joint Object Coding
Commercial name : Dolby Digital Plus with Dolby Atmos
Codec ID : A_EAC3
Duration : 4 h 2 min
Bit rate mode : Constant
Bit rate : 768 kb/s
Channel(s) : 6 channels
Channel layout : L R C LFE Ls Rs
Sampling rate : 48.0 kHz
Frame rate : 31.250 FPS (1536 SPF)
Compression mode : Lossy
Stream size : 1.30 GiB (5%)
Title : English
Language : English
Service kind : Complete Main
Default : Yes
Forced : No
Complexity index : 16
Number of dynamic objects : 15
Bed channel count : 1 channel
Bed channel configuration : LFE

Text #1
ID : 3
Format : UTF-8
Codec ID : S_TEXT/UTF8
Codec ID/Info : UTF-8 Plain Text
Duration : 4 h 0 min
Bit rate : 40 b/s
Count of elements : 2799
Stream size : 71.7 KiB (0%)
Title : English [SDH]
Language : English
Default : No
Forced : No

Text #2
ID : 4
Format : UTF-8
Codec ID : S_TEXT/UTF8
Codec ID/Info : UTF-8 Plain Text
Duration : 3 h 56 min
Bit rate : 30 b/s
Count of elements : 2068
Stream size : 53.5 KiB (0%)
Title : English
Language : English
Default : No
Forced : No

Text #3
ID : 5
Format : UTF-8
Codec ID : S_TEXT/UTF8
Codec ID/Info : UTF-8 Plain Text
Duration : 3 h 55 min
Bit rate : 31 b/s
Count of elements : 2068
Stream size : 54.7 KiB (0%)
Title : English
Language : English
Default : No
Forced : No

Text #4
ID : 6
Format : UTF-8
Codec ID : S_TEXT/UTF8
Codec ID/Info : UTF-8 Plain Text
Duration : 3 h 55 min
Bit rate : 27 b/s
Count of elements : 1769
Stream size : 47.1 KiB (0%)
Title : French
Language : French
Default : No
Forced : No

Text #5
ID : 7
Format : UTF-8
Codec ID : S_TEXT/UTF8
Codec ID/Info : UTF-8 Plain Text
Duration : 3 h 59 min
Bit rate : 29 b/s
Count of elements : 1880
Stream size : 52.0 KiB (0%)
Title : Czech
Language : Czech
Default : No
Forced : No

Text #6
ID : 8
Format : UTF-8
Codec ID : S_TEXT/UTF8
Codec ID/Info : UTF-8 Plain Text
Duration : 3 h 55 min
Bit rate : 27 b/s
Count of elements : 1275
Stream size : 47.9 KiB (0%)
Title : Danish
Language : Danish
Default : No
Forced : No

Text #7
ID : 9
Format : UTF-8
Codec ID : S_TEXT/UTF8
Codec ID/Info : UTF-8 Plain Text
Duration : 3 h 55 min
Bit rate : 29 b/s
Count of elements : 1859
Stream size : 51.7 KiB (0%)
Title : German
Language : German
Default : No
Forced : No

Text #8
ID : 10
Format : UTF-8
Codec ID : S_TEXT/UTF8
Codec ID/Info : UTF-8 Plain Text
Duration : 3 h 55 min
Bit rate : 28 b/s
Count of elements : 1879
Stream size : 49.7 KiB (0%)
Title : Finnish
Language : Finnish
Default : No
Forced : No

Text #9
ID : 11
Format : UTF-8
Codec ID : S_TEXT/UTF8
Codec ID/Info : UTF-8 Plain Text
Duration : 3 h 55 min
Bit rate : 27 b/s
Count of elements : 1769
Stream size : 47.1 KiB (0%)
Title : French
Language : French
Default : No
Forced : No

Text #10
ID : 12
Format : UTF-8
Codec ID : S_TEXT/UTF8
Codec ID/Info : UTF-8 Plain Text
Duration : 3 h 59 min
Bit rate : 28 b/s
Count of elements : 1484
Stream size : 50.6 KiB (0%)
Title : Hungarian
Language : Hungarian
Default : No
Forced : No

Text #11
ID : 13
Format : UTF-8
Codec ID : S_TEXT/UTF8
Codec ID/Info : UTF-8 Plain Text
Duration : 3 h 55 min
Bit rate : 29 b/s
Count of elements : 1696
Stream size : 50.3 KiB (0%)
Title : Italian
Language : Italian
Default : No
Forced : No

Text #12
ID : 14
Format : UTF-8
Codec ID : S_TEXT/UTF8
Codec ID/Info : UTF-8 Plain Text
Duration : 3 h 47 min
Bit rate : 27 b/s
Count of elements : 1534
Stream size : 46.2 KiB (0%)
Title : Dutch
Language : Dutch
Default : No
Forced : No

Text #13
ID : 15
Format : UTF-8
Codec ID : S_TEXT/UTF8
Codec ID/Info : UTF-8 Plain Text
Duration : 3 h 55 min
Bit rate : 29 b/s
Count of elements : 1521
Stream size : 51.3 KiB (0%)
Title : Norwegian
Language : Norwegian
Default : No
Forced : No

Text #14
ID : 16
Format : UTF-8
Codec ID : S_TEXT/UTF8
Codec ID/Info : UTF-8 Plain Text
Duration : 3 h 59 min
Bit rate : 30 b/s
Count of elements : 1871
Stream size : 53.1 KiB (0%)
Title : Polish
Language : Polish
Default : No
Forced : No

Text #15
ID : 17
Format : UTF-8
Codec ID : S_TEXT/UTF8
Codec ID/Info : UTF-8 Plain Text
Duration : 3 h 55 min
Bit rate : 30 b/s
Count of elements : 1879
Stream size : 52.0 KiB (0%)
Title : Portuguese
Language : Portuguese
Default : No
Forced : No

Text #16
ID : 18
Format : UTF-8
Codec ID : S_TEXT/UTF8
Codec ID/Info : UTF-8 Plain Text
Duration : 3 h 55 min
Bit rate : 31 b/s
Count of elements : 1825
Stream size : 54.4 KiB (0%)
Title : Romanian
Language : Romanian
Default : No
Forced : No

Text #17
ID : 19
Format : UTF-8
Codec ID : S_TEXT/UTF8
Codec ID/Info : UTF-8 Plain Text
Duration : 3 h 50 min
Bit rate : 55 b/s
Count of elements : 1722
Stream size : 93.0 KiB (0%)
Title : Russian
Language : Russian
Default : No
Forced : No

Text #18
ID : 20
Format : UTF-8
Codec ID : S_TEXT/UTF8
Codec ID/Info : UTF-8 Plain Text
Duration : 3 h 59 min
Bit rate : 30 b/s
Count of elements : 1891
Stream size : 53.2 KiB (0%)
Title : European Spanish
Language : Spanish
Default : No
Forced : No

Text #19
ID : 21
Format : UTF-8
Codec ID : S_TEXT/UTF8
Codec ID/Info : UTF-8 Plain Text
Duration : 3 h 50 min
Bit rate : 30 b/s
Count of elements : 1488
Stream size : 51.4 KiB (0%)
Title : Spanish
Language : Spanish
Default : No
Forced : No

Text #20
ID : 22
Format : UTF-8
Codec ID : S_TEXT/UTF8
Codec ID/Info : UTF-8 Plain Text
Duration : 3 h 55 min
Bit rate : 26 b/s
Count of elements : 1810
Stream size : 46.4 KiB (0%)
Title : Swedish
Language : Swedish
Default : No
Forced : No

Text #21
ID : 23
Format : UTF-8
Codec ID : S_TEXT/UTF8
Codec ID/Info : UTF-8 Plain Text
Duration : 3 h 47 min
Bit rate : 57 b/s
Count of elements : 1896
Stream size : 95.0 KiB (0%)
Title : Ukrainian
Language : Ukrainian
Default : No
Forced : No

Pliki

Pliki:
Zack.Snyders.Justice.League.2021.2160p.WEB-DL.DDP5.1.Atmos.x265-MZABI (2
txt RARBG.txt (31 b)
mkv Zack.Snyders.Justice.League.2021.2160p.WEB-DL.DDP5.1.Atmos.x265-MZABI.mkv (25,81 Gb)


Trackery

seeders: 165 leechers: 258 download: 118
http://tracker.trackerfix.com:80/announce
97 78 30
udp://9.rarbg.me:2760/announce
36 83 39
udp://9.rarbg.to:2890/announce
32 97 49
Dodaj Komentarz
Przepisz poprawnie kod, widniejący na obrazku:*

Żaden z plików nie znajduje się na serwerze. Torrenty są własnością użytkowników. Administrator serwisu nie może ponieść konsekwencji za to co użytkownicy wstawiają, lub za to co czynią na stronie. Nie możesz używać tego serwisu do rozpowszechniania lub ściągania materiałów do których nie masz odpowiednich praw lub licencji. Użytkownicy odpowiedzialni są za przestrzeganie tych zasad.